Dragon Ball Super S04E23

Posted By: Tavaz
1080p (FullHD) / HDTV IMDb
Dragon Ball Super S04E23

Dragon Ball Super S04E23
HDTV | MKV | 1916x1080 | English | H264 @ 5386 kbps | AC-3 @ 448 kbps | 21 min 55 s | 916 MiB
Subtitles: English
Genre: Animation, Mystery

Set just after the events of the Buu Saga of Dragon Ball Z, a deadly threat awakens once more. People lived in peace without knowing who the true heroes were during the devastating battle against Majin Buu. The powerful Dragon Balls have prevented any permanent damage, and our heroes also continue to live a normal life. In the far reaches of the universe, however, a powerful being awakens early from his slumber, curious about a prophecy of his defeat.

Join Gokuu, Piccolo, Vegeta, Gohan, and the rest of the Dragon Ball crew as they tackle the strongest opponent they have ever faced. Beerus, the god of destruction, now sets his curious sights on Earth. Will the heroes save the day and prevent earth's destruction? Or will the whims of a bored god prove too powerful for the Saiyans? Gokuu faces impossible odds once more and fights for the safety of his loved ones and the planet.

00509dcebb864b82a11f9b87bfd66df9.mkv (915.6 MB)



General
Unique ID : 171241953771347252187122729323343902620 (0x80D4002A9F40448594762857F7FBF79C)
Complete name : ./00509dcebb864b82a11f9b87bfd66df9.mkv
Format : Matroska
Format version : Version 4 / Version 2
File size : 916 MiB
Duration : 21 min 55 s
Overall bit rate : 5 837 kb/s
Encoded date : UTC 2018-07-01 05:33:37
Writing application : mkvmerge v9.7.1 ('Pandemonium') 64bit
Writing library : libebml v1.3.4 + libmatroska v1.4.5

Video
ID : 1
Format : AVC
Format/Info : Advanced Video Codec
Format profile : [email protected]
Format settings : CABAC / 4 Ref Frames
Format settings, CABAC : Yes
Format settings, RefFrames : 4 frames
Codec ID : V_MPEG4/ISO/AVC
Duration : 21 min 55 s
Bit rate : 5 387 kb/s
Width : 1 916 pixels
Height : 1 080 pixels
Display aspect ratio : 16:9
Frame rate mode : Constant
Frame rate : 23.976 (24000/1001) FPS
Color space : YUV
Chroma subsampling : 4:2:0
Bit depth : 8 bits
Scan type : Progressive
Bits/(Pixel*Frame) : 0.109
Stream size : 845 MiB (92%)
Writing library : x264 core 155 r2901 7d0ff22
Encoding settings : cabac=1 / ref=4 / deblock=1:1:1 / analyse=0x3:0x133 / me=umh / subme=10 / psy=1 / psy_rd=0.40:0.00 / mixed_ref=1 / me_range=24 / chroma_me=1 / trellis=2 / 8x8dct=1 / cqm=0 / deadzone=21,11 / fast_pskip=1 / chroma_qp_offset=-2 / threads=24 / lookahead_threads=6 / sliced_threads=0 / nr=0 / decimate=1 / interlaced=0 / bluray_compat=0 / constrained_intra=0 / bframes=10 / b_pyramid=2 / b_adapt=2 / b_bias=0 / direct=3 / weightb=1 / open_gop=0 / weightp=2 / keyint=250 / keyint_min=23 / scenecut=40 / intra_refresh=0 / rc_lookahead=60 / rc=crf / mbtree=1 / crf=17.0 / qcomp=0.60 / qpmin=0 / qpmax=69 / qpstep=4 / ip_ratio=1.40 / aq=1:0.60
Default : Yes
Forced : No

Audio
ID : 2
Format : AC-3
Format/Info : Audio Coding 3
Format settings, Endianness : Big
Codec ID : A_AC3
Duration : 21 min 55 s
Bit rate mode : Constant
Bit rate : 448 kb/s
Channel(s) : 6 channels
Channel positions : Front: L C R, Side: L R, LFE
Sampling rate : 48.0 kHz
Frame rate : 31.250 FPS (1536 SPF)
Bit depth : 16 bits
Compression mode : Lossy
Stream size : 70.3 MiB (8%)
Language : English
Service kind : Complete Main
Default : Yes
Forced : No

Text
ID : 3
Format : UTF-8
Codec ID : S_TEXT/UTF8
Codec ID/Info : UTF-8 Plain Text
Duration : 21 min 40 s
Bit rate : 129 b/s
Count of elements : 507
Stream size : 20.5 KiB (0%)
Language : English
Default : No
Forced : No





Dragon Ball Super S04E23


Dragon Ball Super S04E23


Dragon Ball Super S04E23


Dragon Ball Super S04E23


Dragon Ball Super S04E23

All episodes

Sitemapحلقة 1 مسلسل True Detective الموسم الثالث الحلقة 1 2014 HDTv IMDB 9 مسلسل True Detective الموسم الثالث الحلقة 1 اثارة True Detective الموسم الثالث الحلقة 1 مشاهدة وتحميل مسلسل الاكشن والدراما True Detective S03 الموسم الثالث مترجم اون لاين وتحميل... | Suchao Pongwilai | Kobayashi ga Kawai Sugite Tsurai!!